تبلیغات
Ishockey Ligaen Livescore - El Castillo Ambulante 1080p Castellano Language
چهارشنبه 25 اسفند 1395  08:22 ق.ظ
توسط: Tiffany Ford


el castillo ambulante 1080p castellano language

El Castillo Ambulante 1080p Castellano Language -> http://urlin.us/62us9






















































El Castillo Ambulante 1080p Castellano Language

Los comentarios son de sus respectivos autores, los cuales son nicos reponsables de lo que escriban. TV shows.. 25 juny 2015, 15:48 Re: [MEGA] El Castillo Ambulante [BDRIP 1080p] [GHIBLI] Citaci #12 dj. .. Opciones adicionales Ver imgen de fondo (5 seg).Ver enlaces Ver comentarios Idioma Audio Japons, Espaol Subtitulos Espaol Fansub Subttulos de Tekeremata! Vdeo, tamao y calidad MKV (1080p) 1920 1080 Tamao total aprox. Animales Fantasticos Y Donde Encontrarlos [1080p]…Trilogia El Seor De Los Anillos Extended [1080p]…El Protegido [1080p] [Latino-Ingles] [MEGA]Sing: Ven y Canta! [1080p] [Latino-Ingles] [MEGA]Dulzura Americana [1080p] [Latino-Ingles] [MEGA]Alien: El Octavo Pasajero [1080p] [Latino-Ingles] [MEGA]Estacion Zombie (Train to Busan) [1080p] [Latino-Coreano]…Pasajeros [1080p] [Latino-Ingles] [MEGA]La Resurreccion De Louis Drax [1080p] [Latino-Ingles] [MEGA]Doctor Strange [1080p] [Latino-Ingles] [MEGA]. Lmite: 300 caracteres. Juegos para PC . Accin Animacin Anime Automviles Aventura Blico Ciencia Ficcin Cine pico Comedia Documental Drama Ertico Fantstico Intriga Oeste Pelcula de Culto Religin Romance Superhroes Terror Thriller . 18 des. A su rescate aparece un joven que la acompaa hasta la cafetera. 28 set. 26 feb. Top 10 de la semana. Enlaces. Aquestes parts, el windows me les llegeix com a fulls en blanc, evidentment no executables (cosa que s un problema que ja li ha passat a ms d'un)Tinc l'autodescompresor del Jdownloader desactivat. 2013, 01:08 Ubicaci: Institut Shohoku Re: [MEGA] El Castillo Ambulante [BDRIP 1080p] [GHIBLI] Citaci #9 dv. Si encuentras informacin erronea puedes reportar en la pgina de contacto. 27 feb.

29 juny 2015, 06:24 De nada a ti por comentar Torna a linici Sumowvsky Usuari Entrades: 5 Membre des de: dl. El castillo ambulante (2004). Puedes seguirme en Twitter y en My Anime List. Vaig a la carpeta on la tinc descarregada, i em trobo les 5 pgines blanques. 2014, 04:55 sirenko85 ha escrit:Hola, tengo un problemaPrueba a descomprimir con winrar para que te diga que rar te bajaste corrompido, y vuelvelo a bajar. Pero tal vez sea Howl quin necesite la ayuda de Sophie.Premios:2005: Nominada al Oscar: Mejor pelcula de animacin2005: Crculo de crticos de Nueva York: Mejor pelcula de animacin2005: Asociacin de Crticos de Los Angeles: Mejor banda sonora2005: Festival de Venecia: Nominada al Len de Oro (mejor pelcula)2005: Premios Annie: Nominada a Mejor pelcula, director y guin2005: Nominada a Critics' Choice Awards: Mejor largometraje de animacinMediainfo:Spoiler: mostraComplete name : El Castillo Ambulante [2004] [49E34621].mkvFormat : MatroskaFormat version : Version 4 / Version 2File size : 3.70 GiBDuration : 1h 59mnOverall bit rate : 4 441 KbpsEncoded date : UTC 2014-10-06 23:37:25Writing application : mkvmerge v7.2.0 ('On Every Street') 64bit built on Sep 13 2014 15:52:10Writing library : libebml v1.3.0 + libmatroska v1.4.1DURATION : 01:59:08.192000000NUMBEROFFRAMES : 223381NUMBEROFBYTES : 171556608STATISTICSWRITINGAPP : mkvmerge v7.2.0 ('On Every Street') 64bit built on Sep 13 2014 15:52:10STATISTICSWRITINGDATEUTC : 2014-10-06 23:37:25STATISTICSTAGS : BPS DURATION NUMBEROFFRAMES NUMBEROFBYTESVideoID : 1Format : AVCFormat/Info : Advanced Video CodecFormat profile : MainL4.0Format settings, CABAC : YesFormat settings, ReFrames : 4 framesCodec ID : VMPEG4/ISO/AVCDuration : 1h 59mnBit rate : 3 776 KbpsWidth : 1 920 pixelsHeight : 1 080 pixelsDisplay aspect ratio : 16:9Frame rate mode : ConstantFrame rate : 23.976 fpsColor space : YUVChroma subsampling : 4:2:0Bit depth : 8 bitsScan type : ProgressiveBits/(Pixel*Frame) : 0.076Stream size : 3.14 GiB (85%)Title : Hauru no Ugoku ShiroWriting library : x264 core 120Encoding settings : cabac=1 / ref=3 / deblock=1:0:0 / analyse=0x1:0x111 / me=hex / subme=2 / psy=1 / psyrd=1.00:0.00 / mixedref=1 / merange=16 / chromame=1 / trellis=0 / 8x8dct=0 / cqm=0 / deadzone=21,11 / fastpskip=1 / chromaqpoffset=0 / threads=6 / slicedthreads=0 / nr=0 / decimate=1 / interlaced=0 / bluraycompat=0 / constrainedintra=0 / bframes=3 / bpyramid=2 / badapt=1 / bbias=0 / direct=1 / weightb=1 / opengop=0 / weightp=1 / keyint=240 / keyintmin=24 / scenecut=40 / intrarefresh=0 / rclookahead=10 / rc=crf / mbtree=1 / crf=20.0 / qcomp=0.60 / qpmin=3 / qpmax=69 / qpstep=4 / ipratio=1.40 / aq=1:1.00Language : JapaneseDefault : YesForced : NoColor primaries : BT.709Transfer characteristics : BT.709Matrix coefficients : BT.709Audio #1ID : 2Format : AC-3Format/Info : Audio Coding 3Mode extension : CM (complete main)Format settings, Endianness : BigCodec ID : AAC3Duration : 1h 59mnBit rate mode : ConstantBit rate : 192 KbpsChannel count : 2 channelsChannel positions : Front: L RSampling rate : 48.0 KHzBit depth : 16 bitsCompression mode : LossyStream size : 164 MiB (4%)Title : Castellano [AC3 2.0Ch 192 Kbps]Language : SpanishDefault : YesForced : NoAudio #2ID : 3Format : AC-3Format/Info : Audio Coding 3Mode extension : CM (complete main)Format settings, Endianness : BigCodec ID : AAC3Duration : 1h 59mnBit rate mode : ConstantBit rate : 192 KbpsChannel count : 2 channelsChannel positions : Front: L RSampling rate : 48.0 KHzBit depth : 16 bitsCompression mode : LossyStream size : 164 MiB (4%)Title : Catal [AC3 2.0Ch 192 Kbps]Language : CatalanDefault : NoForced : NoAudio #3ID : 4Format : AC-3Format/Info : Audio Coding 3Mode extension : CM (complete main)Format settings, Endianness : BigCodec ID : AAC3Duration : 1h 59mnBit rate mode : ConstantBit rate : 192 KbpsChannel count : 2 channelsChannel positions : Front: L RSampling rate : 48.0 KHzBit depth : 16 bitsCompression mode : LossyStream size : 164 MiB (4%)Title : Japons [AC3 2.0Ch 192 Kbps]Language : JapaneseDefault : NoForced : NoTextID : 5Format : UTF-8Codec ID : STEXT/UTF8Codec ID/Info : UTF-8 Plain TextTitle : Castellano Completos Planos [SRT]Language : SpanishDefault : NoForced : NoInformacin BsicaFuente de vdeo: Blu-Ray 1080pContenedor: mkvCdec: x264 8 BitsTamao: 3.70 GBTasa de Bits total: 4 441 KbpsResolucin: 1920x1080Audio 1: Castellano AC3 192 Kbps 2 ChannelsAudio 2: Catal AC3 192 Kbps 2 ChannelsAudio 3: Japons AC3 192 Kbps 2 ChannelsMontador, y Uploader: HoT.FuNSincronizador de audios: ArcamiSubtitulos: Castellano Completos [SRT]Es la peli de Arcami, pero cambiando el Formato de los audios de AAC a AC3 para mayor compatibilidad ya que su post no se puede descargar, y no da seales de vida la re-subo para vosotros CapturasSpoiler: mostraLINK DE DESCARGA 8 BITSLINKS DE DESCARGA 8 BITS, DISFRUTADMIRROR 1MIRROR 2Nota: Los 2 Links son el mismo pero con distinta web encryptadora TUTORIAL PARA LA DESCARGAPrimero de todo tener el JDowloader (V2) o Mipony abierto, y cuando ests en la pgina ncrypt.in o Subedlc.com, tendrs que resolver un captcha (probablemente un puzzle) y despus, hacer click en el botn CNL2 o Clic'N'Load Si hacis click en Permitir los links de MEGA se agregarn automticamente a JDowloader (Tambin podis usar Mipony)Y luego Con 7-Zip descomprims los archivos usando la contrasea nombrada abajo.=> "HoT.FuN" <=Sin las comillas ni las flechas Y Escribid exactamente = la contrasea, con las maysculas y minsculas u os dar error!Para comprobar si la pelcula se ha descargado bien podis usar este programa RapidCRC. La pellcula est dividida en 5 parts. Sophie decide pedir ayuda al mago Howl, que vive en un castillo ambulante. y se ve genial, la espera te merecer la pena. Entradas recientes Diferentes tipos de Mouse que comprar en China PelisNuevas.com, tu sitio para ver los ltimos estrenos G.I. 8a9bf390f8
sharp aquos 32 720p review
perception s01e09 720p vs 1080i
metro last light 1080p screenshots on mac
imax dinosaurs alive 3d sbs 1080p or 1080i
white flowers hd wallpapers 1080p spring
animals maroon 5 1080p 3d
cutie honey the live spork 720p
orange video songs hd 1080p telugu
forest hd wallpapers 1080p of girls
bose freespace 360p series ii outdoor speaker


  • آخرین ویرایش:-
نظرات()   
   
займ на карту срочно круглосуточно
جمعه 21 اردیبهشت 1397 05:48 ب.ظ
кредит срочно без отказа украина
оформить займ на карту срочно круглосуточно
взять кредит онлайн срочно
где взять кредит на карту без отказа
гроши онлайн на карточку
кредит на карточку без процентов
займ онлайн на карту срочно
foot pain gout
سه شنبه 6 تیر 1396 08:15 ق.ظ
Good day very cool blog!! Man .. Beautiful .. Superb ..

I will bookmark your blog and take the feeds also?
I'm glad to seek out numerous helpful info right here within the submit,
we need develop more strategies on this regard, thank
you for sharing. . . . . .
Doretha
دوشنبه 18 اردیبهشت 1396 02:45 ب.ظ
Glad to be one of the visitors on this awe inspiring website
:D.
BHW
پنجشنبه 24 فروردین 1396 01:43 ق.ظ
If you are going for most excellent contents like me, simply go to
see this web page all the time for the reason that it presents quality contents, thanks
manicure
دوشنبه 21 فروردین 1396 09:09 ب.ظ
I do trust all of the ideas you have introduced on your post.
They are really convincing and can certainly work. Still, the posts are
too brief for newbies. Could you please extend them a little
from subsequent time? Thank you for the post.
manicure
یکشنبه 20 فروردین 1396 03:13 ب.ظ
WOW just what I was searching for. Came here by searching for manicure
 
لبخندناراحتچشمک
نیشخندبغلسوال
قلبخجالتزبان
ماچتعجبعصبانی
عینکشیطانگریه
خندهقهقههخداحافظ
سبزقهرهورا
دستگلتفکر